فیلم دونی|دانلود فیلم

The LEGO Ninjago Movie 2017 BluRay 4K Ultra HD 2160p - فیلم دونی|دانلود فیلم

توضیحات
---
  • تاریخ : ۲ام بهمن ۱۳۹۶
  • موضوع : دسته‌بندی نشده
  • بازدید : 6 views
  • نظرات : دیدگاه‌ها برای The LEGO Ninjago Movie 2017 BluRay 4K Ultra HD 2160p بسته هستند

 

The LEGO Ninjago Movie (2017) BluRay 4K UHD 2160p 10bit x265 HEVC + Sample File

دانلود انیمیشن جدید The LEGO Ninjago Movie 2017 با کیفیت 4K

The LEGO Ninjago Movie 2017 2160p BluRay x265 10bit SDR DTS-HD MA TrueHD 7.1 Atmos-SWTYBLZ

 

The LEGO NINJAGO 4k poster

 

نام انیمیشن: لگو نینجاگو – The LEGO Ninjago Movie

ژانر: انیمیشن، اکشن، ماجراجویی

مدت زمان: 101 دقیقه

حجم: 22.2 گیگابایت

كيفيت: 4K UHD 2160p x265

زبان: انگلیسی

زیرنویس فارسی: دارد

کارگردان: Charlie Bean, Paul Fisher

بازیگران: Olivia Munn, Kumail Nanjiani, Dave Franco

IMDB اطلاعات بیشتر در IMDB

خلاصه داستان: فیلم لگو نینجاگو (The LEGO Ninjago Movie) انیمیشنی به کارگردانی “چارلی بین” می باشد که قرار است در تاریخ جمعه 31 شهريور 1396 امسال اکران عمومی آن توسط کمپانی “برادران وارنر” آغاز گردد. این انیمیشن در ادامه ی موفقیت های سری سینمایی انیمیشن های لگو ساخته شده است و داستان 6 نینجای جوان به نام های Lloyd, Jay, Kai, Cole, Zane و Nya را دنبال می کند که می بایست از خانه ی خود که “Ninjago” نام دارد ، دفاع کنند. در شب آن ها مبارزانی باهوش و بی رحم هستند که با استفاده از مهارت های رزمی خود و همچنین مهارت ساخت وسایل، با دشمنان مبارزه می کنند و در طی روز نیز نوجوان هایی معمولی هستند که با بزرگترین دشمن دوران نوجوانی یعنی “دبیرستان” دست و پنجه نرم می کنند! استاد آن ها Sensei Wu (با صدای جکی چان) این شش مبارز را برای روزهای سخت آماده کرده است و تمامی نیروهای رزمی را به صورت کامل به ان ها یاد داده است. آن‌ها با هیولاها می‌جنگند، سوار خودروها می‌شوند و سرزمین نینجاگو را از دست اژدها نجات می‌دهند. در این داستان جنگ‌سالار لرد گارمادون (جاستین ثرو) با این واقعیت روبرو است که یکی از شش نوجوان (دیو فرانکو) پسر او است و باید با این موضوع را قبول کند. … پس از فیلم لگو بتمن، این دومین انیمیشنی سینمایی است که تاکنون ساخته شده است و انتظار می رود همچون دو کار قبلی، فیلم لگو نینجاگو نیز موفقیت های خوبی از لحاظ فروش و همچنین بازخورد کاربران کسب نماید.

 

جهت دانلود انیمیشن 4K و کسب اطلاعات تکمیلی فیلم، به ادامه مطلب رجوع کنید…

 

Video
Format/Info                    : High Efficiency Video Coding
Format profile                 : Main 10@L5.1@High
Codec ID                       : V_MPEGH/ISO/HEVC
Duration                       : 1 h 41 min
Bit rate                       : 21.8 Mb/s
Width                          : 3 840 pixels
Height                         : 1 600 pixels
Display aspect ratio           : 2.40:1
Frame rate                     : 23.976 (24000/1001) FPS
Color space                    : YUV
Bit depth                      : 10 bits
Bits/(Pixel*Frame)             : 0.148
Stream size                    : 15.5 GiB (73%)

—————————————–
Audio
Format                         : Atmos / TrueHD
Codec ID                       : A_TRUEHD
Duration                       : 1 h 41 min
Bit rate                       : 3 938 kb/s
Channel(s)                     : Object Based / 8 channels
Sampling rate                  :  / 48.0 kHz
Frame rate                     : 1 200.000 FPS (40 spf)
Stream size                    : 2.79 GiB (13%)

 

The LEGO NINJAGO 4k Screen

 

_ دانلود انیمیشن جدید Get Out 2017 با کیفیت 4K UHD 2160p _

 

Download Icon دانلود پارت ۰۱: Direct Link

Download Icon دانلود پارت ۰۲: Direct Link

Download Icon دانلود پارت ۰۳: Direct Link

Download Icon دانلود پارت ۰۴: Direct Link

Download Icon دانلود پارت ۰۵: Direct Link

Download Icon دانلود پارت ۰۶: Direct Link

Download Icon دانلود پارت ۰۷: Direct Link

Download Icon دانلود پارت ۰۸: Direct Link

Download Icon دانلود پارت ۰۹: Direct Link

Download Icon دانلود پارت ۱۰: Direct Link

Download Icon دانلود پارت ۱۱: Direct Link

Download Icon دانلود پارت ۱۲: Direct Link

Download Icon دانلود فایل نمونه کیفیت

Download Icon دانلود زیرنویس فارسی

 

» دانلود نسخه های دیگر بلوری انیمیشن The LEGO Ninjago Movie 2017

 

 

نوشته The LEGO Ninjago Movie 2017 BluRay 4K Ultra HD 2160p اولین بار در آوا دانلود | دانلود فیلم و سریال جدید با لینک مستقیم پدیدار شد.

ارسال دیدگاه جدید

نظرات برای این مطلب بسته شده است.

Sorry, the comment form is closed at this time.

به نکات زیر توجه کنید

  • نظرات شما پس از بررسی و تایید نمایش داده می شود.
  • لطفا نظرات خود را فقط در مورد مطلب بالا ارسال کنید.